Endless Zone

From Sega Retro

n/a

EndlessZone PC Title.png
Endless Zone
Endless Zone Steam Worldwide Icon.png
System(s): Steam
Publisher: Sega
Developer:
Release Date RRP Code
Steam
US
FREEFREE[1] 1368450
Steam
EU
FREEFREE[1] 1368450

This teeny-tiny article needs some work. You can help us by expanding it.


Endless Zone was a limited time free game published by Sega for Steam as part of their Go Sega 60th Anniversary campaign. It was removed from sale on 19 October 2020.


A small, fast-paced game inspired by SEGA’s "Fantasy Zone" series. Play through four worlds in frenetic arcade action as you help the hero, Opbot, evade aliens, enemies, and things from another dimension on their way to freedom!

— Steam Store Page[1]


Artwork

Trailer

Error creating thumbnail: '/usr/bin/ffmpeg' -threads 1 -ss 24 -y -i '/home/sonicret/domains/segaretro.org/public_html/images/8/8c/Endless_Zone_Steam_Worldwide_Trailer.webm' -ss 3 -s 1920x1080 -f mjpeg -an -vframes 1 '/home/sonicret/domains/segaretro.org/public_html/images/temp/transform_1ff22cd1b894.jpg' 2>&1 wgMaxShellMemory: 307200 ffmpeg version 4.1.6 Copyright (c) 2000-2020 the FFmpeg developers built with gcc 8 (Debian 8.3.0-6) configuration: --disable-decoder=amrnb --disable-decoder=libopenjpeg --disable-libopencv --disable-outdev=sdl2 --disable-podpages --disable-sndio --disable-stripping --enable-libaom --enable-avfilter --enable-avresample --enable-gcrypt --disable-gnutls --enable-openssl --enable-gpl --enable-libass --enable-libbluray --enable-libbs2b --enable-libcaca --enable-libcdio --enable-libcodec2 --enable-libfdk-aac --enable-libfontconfig --enable-libfreetype --enable-libfribidi --enable-libgme --enable-libgsm --enable-libilbc --enable-libkvazaar --enable-libmp3lame --enable-libopencore-amrnb --enable-libopencore-amrwb --enable-libopenh264 --enable-libopenjpeg --enable-libopenmpt --enable-libopus --enable-libpulse --enable-librubberband --enable-libshine --enable-libsnappy --enable-libsoxr --enable-libspeex --enable-libtesseract --enable-libtheora --enable-libvidstab --enable-libvo-amrwbenc --enable-libvorbis --enable-libvpx --enable-libx265 --enable-libzimg --enable-libxvid --enable-libzvbi --enable-nonfree --enable-opencl --enable-opengl --enable-postproc --enable-pthreads --enable-shared --enable-version3 --enable-libwebp --incdir=/usr/include/x86_64-linux-gnu --libdir=/usr/lib/x86_64-linux-gnu --prefix=/usr --toolchain=hardened --enable-frei0r --enable-chromaprint --enable-libx264 --enable-libiec61883 --enable-libdc1394 --enable-vaapi --enable-libmfx --enable-libvmaf --disable-altivec --shlibdir=/usr/lib/x86_64-linux-gnu libavutil 56. 22.100 / 56. 22.100 libavcodec 58. 35.100 / 58. 35.100 libavformat 58. 20.100 / 58. 20.100 libavdevice 58. 5.100 / 58. 5.100 libavfilter 7. 40.101 / 7. 40.101 libavresample 4. 0. 0 / 4. 0. 0 libswscale 5. 3.100 / 5. 3.100 libswresample 3. 3.100 / 3. 3.100 libpostproc 55. 3.100 / 55. 3.100 Input #0, matroska,webm, from '/home/sonicret/domains/segaretro.org/public_html/images/8/8c/Endless_Zone_Steam_Worldwide_Trailer.webm': Metadata: COMPATIBLE_BRANDS: mp42mp41 MAJOR_BRAND : mp42 MINOR_VERSION : 0 ENCODER : Lavf58.20.100 Duration: 00:00:55.18, start: -0.007000, bitrate: 5480 kb/s Stream #0:0(eng): Video: vp9 (Profile 0), yuv420p(tv), 1920x1080, SAR 1:1 DAR 16:9, 30 fps, 30 tbr, 1k tbn, 1k tbc (default) Metadata: HANDLER_NAME : ?Mainconcept Video Media Handler ENCODER : Lavc58.35.100 libvpx-vp9 DURATION : 00:00:55.173000000 Stream #0:1(eng): Audio: opus, 48000 Hz, stereo, fltp (default) Metadata: HANDLER_NAME : #Mainconcept MP4 Sound Media Handler ENCODER : Lavc58.35.100 libopus DURATION : 00:00:55.176000000 Stream mapping: Stream #0:0 -> #0:0 (vp9 (native) -> mjpeg (native)) Press [q] to stop, [?] for help [swscaler @ 0x5556e1f57c00] deprecated pixel format used, make sure you did set range correctly Output #0, mjpeg, to '/home/sonicret/domains/segaretro.org/public_html/images/temp/transform_1ff22cd1b894.jpg': Metadata: COMPATIBLE_BRANDS: mp42mp41 MAJOR_BRAND : mp42 MINOR_VERSION : 0 encoder : Lavf58.20.100 Stream #0:0(eng): Video: mjpeg, yuvj420p(pc), 1920x1080 [SAR 1:1 DAR 16:9], q=2-31, 200 kb/s, 30 fps, 30 tbn, 30 tbc (default) Metadata: HANDLER_NAME : ?Mainconcept Video Media Handler DURATION : 00:00:55.173000000 encoder : Lavc58.35.100 mjpeg Side data: cpb: bitrate max/min/avg: 0/0/200000 buffer size: 0 vbv_delay: -1 Error while filtering: Cannot allocate memory Failed to inject frame into filter network: Cannot allocate memory Error while processing the decoded data for stream #0:0 Conversion failed!

External links

References

Endless Zone
EndlessZone PC Title.png

Main page | Comparisons | Development | Magazine articles | Reception


Games in the Endless Series
Steam
Endless Space (2016) | Endless Legend (2016) | Dungeon of the Endless (2016) | Endless Grand Master Collection (2017) | Endless Space 2 (2017) | Endless Universe Collection (2018) | Love Thyself - A Horatio Story (2019) | Endless Zone (2020)

Unsorted: Endless Legend Expansion Set (201x)

Endless related media
Music
Several
Book
Endless Space 2 Stories (2017)
Opa-Opa Fantasy Zone series of games
Arcade
Fantasy Zone (1986) | Fantasy Zone (redemption game) (1998?) | Fantasy Zone II DX: The Tears of Opa-Opa (2008) | Medal de Fantasy Zone (2012)
Sega Master System
Fantasy Zone (1986) | Fantasy Zone II: The Tears of Opa-Opa (1987) | Fantasy Zone: The Maze (1987) | Galactic Protector (1988)
Sega Game Gear
Fantasy Zone Gear (1991)
Sega Mega Drive
Super Fantasy Zone (1992)
Sega Saturn
Sega Ages Fantasy Zone (1997)
Java 2, Micro Edition (J2ME)
Fantasy Zone (2003)
Sony PlayStation 2
Sega Ages 2500 Series Vol. 3: Fantasy Zone (2003) | Sega Ages 2500 Series Vol. 33: Fantasy Zone Complete Collection (Fantasy Zone II DX: The Tears of Opa-Opa | Fantasy Zone Neo Classic (2008)
LCD handheld game
Fantasy Zone (2009)
Nintendo 3DS
3D Fantasy Zone: Opa-Opa Bros. (2014) | 3D Fantasy Zone II W (2014)
Nintendo Switch
Sega Ages Fantasy Zone (TBD)
TurboGrafx-16
Space Fantasy Zone (Unreleased)
Fantasy Zone related media
Music
Fantasy Zone Ultra Super Big Maximum Great Strong Complete Album (2008)
Book
Fantasy Zone Ura Manual‎ (198x) | Fantasy Zone Kanzen Kouryaku Guide‎ (1987) | Family Computer Game Hisshou-hou Series 43: Fantasy Zone (1987) | Fantasy Zone Hisshou Kanpeki Hon (1987) | Fantasy Zone II Kanpeki Hon (1989) | Fantasy Zone Isei Kara no Shinryaku-sha (19xx)
VHS Video
LaserDisc
Fantasy Zone (1987)