Armor of Heroes

From Sega Retro

n/a

ArmorOfHeroes PC Title.png
Armor of Heroes
ArmorOfHeroes Steam Worldwide Icon.png
System(s): Steam
Publisher: Sega
Developer:
Number of players: 4
Release Date RRP Code
Steam
JP
FREEFREE[1] 1368440
Steam
US
FREEFREE[1] 1368440
Steam
EU
FREEFREE[1] 1368440

This teeny-tiny article needs some work. You can help us by expanding it.


Armor of Heroes was a limited time free game published by Sega for Steam as part of their Go Sega 60th Anniversary campaign. It was removed from sale on 19 October 2020.


Retro tank battles with a modern shine! Featuring 4 player PVP couch co-op, destructible environments, 9 games modes, and more.

— Steam Store Page[1]


Artwork

Trailer

Error creating thumbnail: '/usr/bin/ffmpeg' -threads 1 -ss 23 -y -i '/home/sonicret/domains/segaretro.org/public_html/images/6/67/ArmorOfHeroes_Steam_Worldwide_Trailer.webm' -ss 3 -s 1920x1080 -f mjpeg -an -vframes 1 '/home/sonicret/domains/segaretro.org/public_html/images/temp/transform_6d313d9f4c34.jpg' 2>&1 wgMaxShellMemory: 307200 ffmpeg version 4.1.6 Copyright (c) 2000-2020 the FFmpeg developers built with gcc 8 (Debian 8.3.0-6) configuration: --disable-decoder=amrnb --disable-decoder=libopenjpeg --disable-libopencv --disable-outdev=sdl2 --disable-podpages --disable-sndio --disable-stripping --enable-libaom --enable-avfilter --enable-avresample --enable-gcrypt --disable-gnutls --enable-openssl --enable-gpl --enable-libass --enable-libbluray --enable-libbs2b --enable-libcaca --enable-libcdio --enable-libcodec2 --enable-libfdk-aac --enable-libfontconfig --enable-libfreetype --enable-libfribidi --enable-libgme --enable-libgsm --enable-libilbc --enable-libkvazaar --enable-libmp3lame --enable-libopencore-amrnb --enable-libopencore-amrwb --enable-libopenh264 --enable-libopenjpeg --enable-libopenmpt --enable-libopus --enable-libpulse --enable-librubberband --enable-libshine --enable-libsnappy --enable-libsoxr --enable-libspeex --enable-libtesseract --enable-libtheora --enable-libvidstab --enable-libvo-amrwbenc --enable-libvorbis --enable-libvpx --enable-libx265 --enable-libzimg --enable-libxvid --enable-libzvbi --enable-nonfree --enable-opencl --enable-opengl --enable-postproc --enable-pthreads --enable-shared --enable-version3 --enable-libwebp --incdir=/usr/include/x86_64-linux-gnu --libdir=/usr/lib/x86_64-linux-gnu --prefix=/usr --toolchain=hardened --enable-frei0r --enable-chromaprint --enable-libx264 --enable-libiec61883 --enable-libdc1394 --enable-vaapi --enable-libmfx --enable-libvmaf --disable-altivec --shlibdir=/usr/lib/x86_64-linux-gnu libavutil 56. 22.100 / 56. 22.100 libavcodec 58. 35.100 / 58. 35.100 libavformat 58. 20.100 / 58. 20.100 libavdevice 58. 5.100 / 58. 5.100 libavfilter 7. 40.101 / 7. 40.101 libavresample 4. 0. 0 / 4. 0. 0 libswscale 5. 3.100 / 5. 3.100 libswresample 3. 3.100 / 3. 3.100 libpostproc 55. 3.100 / 55. 3.100 Input #0, matroska,webm, from '/home/sonicret/domains/segaretro.org/public_html/images/6/67/ArmorOfHeroes_Steam_Worldwide_Trailer.webm': Metadata: COMPATIBLE_BRANDS: mp42mp41 MAJOR_BRAND : mp42 MINOR_VERSION : 0 ENCODER : Lavf58.20.100 Duration: 00:00:53.49, start: -0.007000, bitrate: 5432 kb/s Stream #0:0(eng): Video: vp9 (Profile 0), yuv420p(tv), 1920x1080, SAR 1:1 DAR 16:9, 30 fps, 30 tbr, 1k tbn, 1k tbc (default) Metadata: HANDLER_NAME : ?Mainconcept Video Media Handler ENCODER : Lavc58.35.100 libvpx-vp9 DURATION : 00:00:53.473000000 Stream #0:1(eng): Audio: opus, 48000 Hz, stereo, fltp (default) Metadata: HANDLER_NAME : #Mainconcept MP4 Sound Media Handler ENCODER : Lavc58.35.100 libopus DURATION : 00:00:53.490000000 Stream mapping: Stream #0:0 -> #0:0 (vp9 (native) -> mjpeg (native)) Press [q] to stop, [?] for help [swscaler @ 0x56360b944c00] deprecated pixel format used, make sure you did set range correctly Output #0, mjpeg, to '/home/sonicret/domains/segaretro.org/public_html/images/temp/transform_6d313d9f4c34.jpg': Metadata: COMPATIBLE_BRANDS: mp42mp41 MAJOR_BRAND : mp42 MINOR_VERSION : 0 encoder : Lavf58.20.100 Stream #0:0(eng): Video: mjpeg, yuvj420p(pc), 1920x1080 [SAR 1:1 DAR 16:9], q=2-31, 200 kb/s, 30 fps, 30 tbn, 30 tbc (default) Metadata: HANDLER_NAME : ?Mainconcept Video Media Handler DURATION : 00:00:53.473000000 encoder : Lavc58.35.100 mjpeg Side data: cpb: bitrate max/min/avg: 0/0/200000 buffer size: 0 vbv_delay: -1 frame= 0 fps=0.0 q=0.0 size= 0kB time=00:00:00.00 bitrate=N/A speed= 0x Error while filtering: Cannot allocate memory Failed to inject frame into filter network: Cannot allocate memory Error while processing the decoded data for stream #0:0 Conversion failed!

External links

References


Armor of Heroes
ArmorOfHeroes PC Title.png

Main page | Comparisons | Development | Magazine articles | Reception


Games in the Company of Heroes Series
Company of Heroes (2006) | Opposing Fronts (2007) | Gold (2009) | Tales of Valor (2009) | Complete Pack (2009) | Anthology (201x)
Company of Heroes 2 (2013) | The Western Front Armies (2014) | Ardennes Assault (2014) | The British Forces (2015) | Platinum Edition (2016)
Company of Heroes Franchise Edition (2014) | Company of Heroes 2: Master Collection (2015) | Armor Of Heroes (2020)
Company of Heroes related media
Music
Company of Heroes 2 Original Soundtrack (2013)